PornRush  
Register FAQ Members List Calendar Mark Forums Read
Go Back   PornRush > Adult Clips > XXX Videos
Twin Sisters Brooke And Vikki Lesbian Kissing [Amateur] Twin Sisters Brooke And Vikki Lesbian Kissing

Reply
 
Thread Tools Display Modes
Old 01-21-2011, 01:55 PM   #1 (permalink)
Senior Member
 
Join Date: Dec 2010
Posts: 199
Thanks: 0
Thanked 24 Times in 18 Posts
Default Twin Sisters Brooke And Vikki Lesbian Kissing

Twin Sisters Brooke And Vikki Lesbian Kissing




Lovely girls!

Code:
General
Format                           : Windows Media
File size                        : 26.0 MiB
Duration                         : 3mn 3s
Overall bit rate                 : 1 189 Kbps
Maximum Overall bit rate         : 1 304 Kbps
Movie name                       : b&v les project

Video
Format                           : VC-1
Codec ID                         : WMV3
Duration                         : 3mn 3s
Bit rate mode                    : Constant
Bit rate                         : 1 162 Kbps
Width                            : 640 pixels
Height                           : 480 pixels
Display aspect ratio             : 4:3
Frame rate                       : 25.000 fps
Stream size                      : 25.4 MiB (98%)

Audio
Format                           : WMA
Codec ID/Info                    : Windows Media Audio
Duration                         : 3mn 3s
Bit rate                         : 128 Kbps
Channel(s)                       : 2 channels
Sampling rate                    : 44.1 KHz
Stream size                      : 2.80 MiB (11%)
Code:
http://hotfile.com/dl/98530779/5fa4d26/Brooke.wmv.html
is Offline   Reply With Quote
Reply

Thread Tools
Display Modes

Posting Rules
You may not post new threads
You may not post replies
You may not post attachments
You may not edit your posts

BB code is On
Smilies are On
[IMG] code is On
HTML code is Off
Trackbacks are On
Pingbacks are On
Refbacks are Off